<
 
Статистика раздачи
Размер:  1.62 GB   |    Зарегистрирован:  5 месяцев 13 дней   |    Скачан:  0 раз
DL-List: Нет
Сидов:  0 (+0)  [  0 KB/s  ]   Личеров:  0 (+0)  [  0 KB/s  ]   Подробная статистика пиров
 
   
 
 
 
Автор Сообщение

Мария ®

Пол:

Стаж: 1 год 11 месяцев

Сообщений: 5226

Откуда: Заволжский район.

Торрент-статистика

Информация о фильме
Название: Голос из камня
Оригинальное название: Voice from the Stone
Год выпуска: 2017
Жанр: Триллер, драма, детектив
Выпущено: США, Италия, Code 39 Films, Producer Capital Fund
Режиссер: Эрик Д. Хауэлл
В ролях: Эмилия Кларк, Мартон Чокаш, Катерина Мурино, Кейт Линдер, Ремо Джироне, Лиза Гастони, Эдвард Дринг, Джампьеро Джудика, Николь Кадедду, Антонелла Бритти
О фильме:
50-е годы прошлого века. Таинственный старинный замок в Тоскане. Сюда приезжает Верена, молодая няня, обладающая редким даром возвращать к нормальной жизни психологически травмированных детей. Она умеет найти с ними тесный контакт. Верена - последняя надежда 40-летнего вдовца Клауса, чей сын Джейкоб в течение нескольких месяцев, после смерти матери, не произнес ни слова. Оказывается, мальчик дал обет молчания до тех пор, пока дух матери не вернется. Очень скоро Верена начинает подозревать, что призрак умершей играет с ней в кошки-мышки, чтобы вселиться в ее тело. Возникшее между хозяином и девушкой влечение, перерастающее в подлинную страсть, ускоряет невероятную развязку...

Страна: США, Италия
Студия: Code 39 Films, Producer Capital Fund
Продолжительность: 01:30:15
Перевод: Дублированный | iTunes, любительский одноголосый (BadBajo)
Субтитры: Английские
Файл
Формат: MKV
Качество: BDRip-AVC
Видео: AVC, 1024х428 (2.40:1), 1345 kbps, 23,976 fps, 0,128 bpp
Аудио 1: 48 kHz, AC3, 5.1, 384 Kbps | RUS | iTunes
Аудио 2: 48 kHz, AC3, 5.1, 384 Kbps | RUS | BadBajo
Аудио 3: 48 kHz, AC3, 5.1, 448 Kbps | ENG |
Без какой-либо рекламы

MI

x264 [info]: profile High, level 4.1
x264 [info]: frame I:924 Avg QP:11.16 size: 71804
x264 [info]: frame P:26959 Avg QP:15.11 size: 17571
x264 [info]: frame B:102054 Avg QP:16.01 size: 3633
----------------------------------------------------------
General
Unique ID : 230548453837932975548226629756328845938 (0xAD72045FDECED2A9959F35492AF3A272)
Complete name : D:Voice.from.the.Stone.2017.2xRus.BDRip.AVC.ExKinoRay.mkv
Format : Matroska
Format version : Version 2
File size : 1.62 GiB
Duration : 1 h 30 min
Overall bit rate : 2 562 kb/s
Movie name : Voice from the Stone 2017 from ExKinoRay
Encoded date : UTC 2017-06-07 21:31:18
Writing application : mkvmerge v5.8.0 ('No Sleep / Pillow') built on Sep 2 2012 15:37:04
Writing library : libebml v1.2.3 + libmatroska v1.3.0
Video
ID : 1
Format : AVC
Format/Info : Advanced Video Codec
Format profile : High@L4.1
Format settings, CABAC : Yes
Format settings, ReFrames : 12 frames
Codec ID : V_MPEG4/ISO/AVC
Duration : 1 h 30 min
Bit rate : 1 345 kb/s
Width : 1 024 pixels
Height : 428 pixels
Display aspect ratio : 2.40:1
Frame rate mode : Constant
Frame rate : 23.976 (23976/1000) FPS
Color space : YUV
Chroma subsampling : 4:2:0
Bit depth : 8 bits
Scan type : Progressive
Bits/(Pixel*Frame) : 0.128
Stream size : 837 MiB (51%)
Title : Enigma
Writing library : x264 core 144 r2525 40bb568
Encoding settings : cabac=1 / ref=12 / deblock=1:-2:-2 / analyse=0x3:0x113 / me=umh / subme=10 / psy=1 / psy_rd=1.05:0.10 / mixed_ref=1 / me_range=32 / chroma_me=1 / trellis=2 / 8x8dct=1 / cqm=0 / deadzone=21,11 / fast_pskip=1 / chroma_qp_offset=-3 / threads=12 / lookahead_threads=2 / sliced_threads=0 / nr=0 / decimate=0 / interlaced=0 / bluray_compat=0 / constrained_intra=0 / bframes=9 / b_pyramid=2 / b_adapt=2 / b_bias=0 / direct=3 / weightb=1 / open_gop=0 / weightp=2 / keyint=240 / keyint_min=23 / scenecut=40 / intra_refresh=0 / rc_lookahead=40 / rc=2pass / mbtree=0 / bitrate=1345 / ratetol=1.0 / qcomp=0.60 / qpmin=0 / qpmax=51 / qpstep=4 / cplxblur=20.0 / qblur=0.5 / vbv_maxrate=50000 / vbv_bufsize=62500 / nal_hrd=none / filler=0 / ip_ratio=1.40 / pb_ratio=1.30 / aq=1:1.00
Language : English
Default : Yes
Forced : No
Color range : Limited
Color primaries : BT.709
Transfer characteristics : BT.709
Matrix coefficients : BT.709
Audio #1
ID : 2
Format : AC-3
Format/Info : Audio Coding 3
Mode extension : CM (complete main)
Format settings, Endianness : Big
Codec ID : A_AC3
Duration : 1 h 30 min
Bit rate mode : Constant
Bit rate : 384 kb/s
Channel(s) : 6 channels
Channel positions : Front: L C R, Side: L R, LFE
Sampling rate : 48.0 kHz
Frame rate : 31.250 FPS (1536 spf)
Compression mode : Lossy
Stream size : 248 MiB (15%)
Title : Dub (iTunes)
Language : Russian
Default : No
Forced : No
Audio #2
ID : 3
Format : AC-3
Format/Info : Audio Coding 3
Mode extension : CM (complete main)
Format settings, Endianness : Big
Codec ID : A_AC3
Duration : 1 h 30 min
Bit rate mode : Constant
Bit rate : 384 kb/s
Channel(s) : 6 channels
Channel positions : Front: L C R, Side: L R, LFE
Sampling rate : 48.0 kHz
Frame rate : 31.250 FPS (1536 spf)
Compression mode : Lossy
Stream size : 248 MiB (15%)
Title : AVO (BadBajo)
Language : Russian
Default : No
Forced : No
Audio #3
ID : 4
Format : AC-3
Format/Info : Audio Coding 3
Mode extension : CM (complete main)
Format settings, Endianness : Big
Codec ID : A_AC3
Duration : 1 h 30 min
Bit rate mode : Constant
Bit rate : 448 kb/s
Channel(s) : 6 channels
Channel positions : Front: L C R, Side: L R, LFE
Sampling rate : 48.0 kHz
Frame rate : 31.250 FPS (1536 spf)
Compression mode : Lossy
Stream size : 289 MiB (17%)
Language : English
Default : No
Forced : No
Text
ID : 5
Format : UTF-8
Codec ID : S_TEXT/UTF8
Codec ID/Info : UTF-8 Plain Text
Language : English
Default : No
Forced : No
Menu
00:00:00.000 : en:Chapter 01
00:03:27.874 : en:Chapter 02
00:11:29.730 : en:Chapter 03
00:19:31.086 : en:Chapter 04
00:23:57.519 : en:Chapter 05
00:31:03.152 : en:Chapter 06
00:39:39.835 : en:Chapter 07
00:44:53.857 : en:Chapter 08
00:49:19.873 : en:Chapter 09
00:53:35.670 : en:Chapter 10
00:57:20.895 : en:Chapter 11
01:03:48.032 : en:Chapter 12
01:09:37.131 : en:Chapter 13
01:14:00.018 : en:Chapter 14
01:21:21.167 : en:Chapter 15
01:24:57.634 : en:Chapter 16

[fizzar.com].t159175.torrent
Торрент: Зарегистрирован   [ 2017-06-08 15:36 ]

Скачать torrent

------------------------------

17 KB

Статус: проверено
Скачан: Скачаны:
Размер: 1.62 GB
Оценка:  - (Голосов: 0)
Поблагодарили: 0  Спасибо
:
 
[Профиль] [ЛС]
Показать сообщения:    

Текущее время: Сегодня 15:06

Часовой пояс: GMT + 2



Вы не можете начинать темы
Вы не можете отвечать на сообщения
Вы не можете редактировать свои сообщения
Вы не можете удалять свои сообщения
Вы не можете голосовать в опросах
Вы не можете прикреплять файлы к сообщениям
Вы можете скачивать файлы




покупка трафика на сайт